Detective Conan Movie 5 Trappola di cristalloITA MU HD

« Older   Newer »
 
.
  1.  
    .
    Avatar

    Hai scritto tutta la Bibbia

    Group
    Member
    Posts
    6,331

    Status
    Offline

    Detective Conan Movie 5
    Trappola di cristallo

    Detective Conan Movie 5
    Trappola di cristallo TA - Detective Conan Movie 5
    Trappola di cristallo ITA Streaming - Detective Conan Movie 5
    Trappola di cristallo ITA Streaming Episodi - Detective Conan Movie 5
    Trappola di cristallo ITA Episodi Download ITA



    TarghettaMangaBleach




    Titolo Originale: 名探偵コナン 天国へのカウントダウン Meitantei Konan: Tengoku e no kauntodaun?
    Titolo Italiano: Detective Conan Movie 5
    Trappola di cristallo

    Autore: Gōshō Aoyama
    Episodio: //
    Uscita Episodi: //
    Genere: Shōnen, Giallo, Poliziesco




    Descrizione:Detective Conan: Trappola di cristallo (名探偵コナン 天国へのカウントダウン Meitantei Konan: Tengoku e no kauntodaun?, Detective Conan: Conto alla rovescia verso il Paradiso) è il quinto lungometraggio dedicato all'anime Detective Conan, uscito in Giappone il 21 aprile 2001. Questo film è legato al primo film Detective Conan: Fino alla fine del tempo del 1997, ed è l'unico, insieme al tredicesimo, in cui compaiono gli uomini in nero, acerrimi avversari di Conan. In Italia il film è stato trasmesso per la prima volta il 5 marzo 2005 su Italia 1 (leggermente censurato e con le sigle italiane) e successivamente replicato su Italia Teen Television e su Hiro, in entrambi i canali senza censure e con le sigle originali.
    In questo film viene citato il primo film di Conan, Fino alla fine del tempo. Infatti, una volta a West Tama City, Conan ricorda lo scandalo provocato dalla soluzione di un suo caso, che aveva fatto perdere la carica ad un sindaco di West Tama City e la conseguente interruzione di un progetto di Teiji Moriya, il dinamitardo.

    TRAMA Conan, Ai, il dottor Agasa e i detective boys, dopo un campeggio, fanno visita a due avveniristiche torri di West Tama City, dove vi trovano anche Goro, Ran e Sonoko, invitati da una vecchia amica di Kogoro. Purtroppo, uno spietato assassino uccide uno ad uno alcuni responsabili della costruzione delle torri, lasciando sempre sui luoghi dei delitti una tazzina da sake rotta. Gin e Vodka intercettano delle telefonate che Ai fa alla segreteria telefonica della sorella Akemi per sentire la sua voce, ma non riescono a capire dove si trova la ragazzina. I due malviventi però riescono ad intuire che Sherry sarà alla festa di inaugurazione delle torri di West Tama City....





    Trailer:

    Media Info:

    DC M 5 Countdown to Heaven (1280x720) by Ray Anime.mkv
    Format : Matroska
    File size : 1.90 GiB
    Duration : 1h 39mn
    Overall bit rate : 2 725 Kbps
    Encoded date : UTC 2011-12-18 11:39:06
    Writing application : mkvmerge v3.3.0 ('Language') built on Mar 24 2010 14:59:24
    Writing library : libebml v0.8.0 + libmatroska v0.9.0

    Video
    ID : 1
    Format : AVC
    Format/Info : Advanced Video Codec
    Format profile : High@L3.1
    Format settings, CABAC : Yes
    Format settings, ReFrames : 3 frames
    Format settings, GOP : M=4, N=24
    Codec ID : V_MPEG4/ISO/AVC
    Duration : 1h 39mn
    Bit rate : 2 589 Kbps
    Width : 1 280 pixels
    Height : 720 pixels
    Display aspect ratio : 16:9
    Frame rate : 23.976 fps
    Color space : YUV
    Chroma subsampling : 4:2:0
    Bit depth : 8 bits
    Scan type : Progressive
    Bits/(Pixel*Frame) : 0.117
    Stream size : 1.77 GiB (93%)
    Writing library : x264 core 65 r999kMod cc51047
    Encoding settings : cabac=1 / ref=3 / deblock=1:0:0 / analyse=0x3:0x133 / me=umh / subme=6 / psy_rd=1.0:0.0 / mixed_ref=1 / me_range=16 / chroma_me=1 / trellis=1 / 8x8dct=1 / cqm=0 / deadzone=21,11 / chroma_qp_offset=-2 / threads=2 / thread_queue=2 / nr=0 / decimate=1 / mbaff=0 / bframes=3 / b_pyramid=0 / b_adapt=1 / b_bias=0 / direct=1 / wpredb=1 / keyint=250 / keyint_min=25 / scenecut=40(pre) / rc=abr / bitrate=2589 / ratetol=1.0 / qcomp=0.60 / qpmin=10 / qpmax=51 / qpstep=4 / ip_ratio=1.40 / pb_ratio=1.30 / aq=1:1.00

    Audio
    ID : 2
    Format : MPEG Audio
    Format version : Version 1
    Format profile : Layer 3
    Mode : Joint stereo
    Mode extension : MS Stereo
    Codec ID : A_MPEG/L3
    Codec ID/Hint : MP3
    Duration : 1h 39mn
    Bit rate mode : Constant
    Bit rate : 128 Kbps
    Channel(s) : 2 channels
    Sampling rate : 44.1 KHz
    Compression mode : Lossy
    Stream size : 91.2 MiB (5%)
    Writing library : LAME3.98.2



    Downlod:
    PARTE1 - PARTE2 - PARTE3 - PARTE4 - PARTE5
    FILE DA UNIRE CON HJSPLIT
    www.megaupload.com/?d=IXAH6VC2










    Edited by Rin Økumura - 7/1/2012, 21:24
     
    Top
    .
  2.  
    .
    Avatar

    Hai scritto tutta la Bibbia

    Group
    Member
    Posts
    6,331

    Status
    Offline

    DOWNLOAD DISPONIBILE!!

     
    Top
    .
1 replies since 18/12/2011, 15:20
 
.
Top GO UP